<?xml version="1.0" standalone="no"?>
<!DOCTYPE svg PUBLIC "-//W3C//DTD SVG 1.1//EN" "http://www.w3.org/Graphics/SVG/1.1/DTD/svg11.dtd" >
<svg>
<metadata>
Created by FontForge 20120731 at Sun Jun 30 02:11:12 2019
 By www
</metadata>
<defs>
<font id="Vicasso" horiz-adv-x="260" >
  <font-face 
    font-family="Vicasso"
    font-weight="700"
    font-stretch="normal"
    units-per-em="1000"
    panose-1="2 0 5 3 4 0 0 2 0 4"
    ascent="750"
    descent="-250"
    x-height="674"
    cap-height="673"
    bbox="0 -143.364 779 778"
    underline-thickness="50"
    underline-position="-50"
    unicode-range="U+000D-201E"
  />
<missing-glyph horiz-adv-x="500" 
 />
    <glyph glyph-name=".notdef" horiz-adv-x="500" 
 />
    <glyph glyph-name="NULL" horiz-adv-x="0" 
 />
    <glyph glyph-name="NULL" horiz-adv-x="0" 
 />
    <glyph glyph-name="nonmarkingreturn" unicode="&#xd;" horiz-adv-x="500" 
 />
    <glyph glyph-name="space" unicode=" " horiz-adv-x="275" 
 />
    <glyph glyph-name="H" unicode="H" horiz-adv-x="656" 
d="M67 676q22 -2 44.5 -7t40.5 -14t29.5 -23.5t11.5 -33.5v-601h-126v679zM463 407q-17 -13 -47 -19t-63 -6q-17 0 -36 3.5t-36 8.5q-19 5 -38 12v-139q19 -7 38 -12q17 -5 36 -8.5t36 -3.5q33 0 63 6t47 19l-2 -271h127v601q0 19 -11.5 33.5t-30 23.5t-41 14t-44.5 7z" />
    <glyph glyph-name="I" unicode="I" horiz-adv-x="269" 
d="M203 673v-97v-576h-137v598q0 38 38.5 56.5t98.5 18.5z" />
    <glyph glyph-name="J" unicode="J" horiz-adv-x="402" 
d="M296 661q13 -9 22.5 -16.5t15.5 -17t8.5 -23t2.5 -34.5v-356q0 -57 -17 -97.5t-46.5 -66t-70.5 -37t-89 -11.5q-17 0 -32 3q-3 0 -16 2t-27 5.5t-25.5 7t-11.5 6.5q0 1 2.5 19.5t5 40.5t5 40.5l2.5 18.5q0 -3 7.5 -6.5t18 -6.5t23 -5.5t23.5 -2.5q56 -1 81 20t25 63v349
v119q22 0 46.5 -1.5t46.5 -12.5z" />
    <glyph glyph-name="K" unicode="K" horiz-adv-x="538" 
d="M360 314q59 -63 90.5 -116.5t46.5 -94.5q18 -48 20 -87h-109q0 -1 -4 19.5t-18.5 53t-43 72.5t-77.5 78q22 17 47.5 35t47.5 40zM517 621q-5 -21 -16 -49.5t-30.5 -63t-48 -74.5t-69.5 -84q-46 -43 -89 -69t-74 -42v-237h-123v556v118q21 0 42.5 -4.5t39.5 -13.5
t29.5 -23.5t11.5 -35.5v-214q76 47 121 94t68 87.5t29.5 69.5t6.5 40q30 -5 55.5 -20t46.5 -35z" />
    <glyph glyph-name="L" unicode="L" horiz-adv-x="438" 
d="M191 154q-42 -86 -125 -127v530v119q18 0 40 -5t40.5 -15t31.5 -24.5t13 -32.5v-445zM406 125v-126h-312q82 52 126 126h186z" />
    <glyph glyph-name="M" unicode="M" horiz-adv-x="802" 
d="M506 600q11 20 26 37q13 14 32.5 26t46.5 12q26 0 44 -12t30 -26q14 -17 23 -37l56 -597h-132l-21 547l-133 -498l-56 214zM94 600q8 20 22 37q12 14 30.5 26t45.5 12q26 0 45.5 -12t32.5 -26q15 -17 26 -37l63 -252l27 -89l15 -54l56 -202h-119l-146 547l-21 -547h-133z
" />
    <glyph glyph-name="N" unicode="N" horiz-adv-x="650" 
d="M459 675q21 0 43 -2.5t43 -11.5q17 -8 30 -27.5t13 -36.5v-598h-129v578v98zM288 604q-11 19 -28 35q-14 14 -35.5 25t-50.5 11q-28 0 -47.5 -11t-33.5 -25q-16 -16 -27 -35v-605h143l-35 557l257 -522v282z" />
    <glyph glyph-name="O" unicode="O" horiz-adv-x="697" 
d="M167 341q0 -60 17.5 -114.5t48.5 -98.5t74 -76t93 -48h-42q-69 0 -128.5 26t-103 71.5t-68.5 107t-25 132.5q0 72 25 133.5t68.5 107t103 71.5t128.5 26h42q-50 -16 -93 -49t-74 -78t-48.5 -99t-17.5 -112zM662 341q0 -58 -16.5 -109.5t-47 -94t-73.5 -73t-96 -46.5
q-48 21 -89.5 52.5t-73.5 74.5q17 -11 36.5 -12.5t41.5 -1.5q42 0 79.5 16t65 44.5t43.5 66.5t16 83q0 48 -16 88t-43.5 69t-65 45t-79.5 16q-22 0 -41.5 -4.5t-36.5 -9.5q32 42 77 70.5t93 49.5q50 -16 91.5 -46.5t71.5 -73t46.5 -94.5t16.5 -110z" />
    <glyph glyph-name="P" unicode="P" horiz-adv-x="575" 
d="M279 676q55 0 103.5 -17.5t84.5 -47.5t57 -71t21 -88q0 -86 -41.5 -142.5t-138.5 -73.5q-11 -2 -25 -2.5t-29 1t-28.5 5t-23.5 9.5v121q21 -16 49.5 -17t55.5 10q32 14 49 37t17 52q0 23 -11.5 42.5t-32 33t-48 21t-59.5 7.5q-15 0 -27.5 -3t-23.5 -7q-28 27 -62.5 46.5
t-73.5 31.5q39 28 85.5 40t101.5 12zM67 594q42 -11 74 -27.5t60 -42.5v-524h-134v594z" />
    <glyph glyph-name="Q" unicode="Q" horiz-adv-x="672" 
d="M526 28q17 -8 37.5 -10t38.5 -1q21 1 42 4l-70 -103q-22 -4 -46 -4q-20 0 -45 3.5t-48 14.5q-30 16 -47.5 34.5t-28.5 34.5q-20 0 -44.5 0.5t-45.5 5.5q-46 11 -87 40t-73 65q-14 21 -25 41.5t-22 40.5q-11 37 -19.5 73.5t-8.5 72.5q0 70 23.5 131.5t64.5 107t96.5 72
t120.5 26.5q10 0 24 -2.5t25 -2.5q-27 -11 -55 -26.5t-50 -35.5q-42 -37 -70.5 -86.5t-39.5 -106.5q-8 -29 -9.5 -60.5t4 -63t17 -60.5t29.5 -53q34 -39 75 -52.5t80.5 -6.5t73.5 33.5t55 67.5q16 26 26 56.5t10 61.5q0 46 -14 86.5t-38.5 70.5t-59.5 47t-77 17
q-20 0 -40 -4.5t-36 -9.5q32 43 68.5 69t84.5 42q47 -15 86.5 -45.5t68 -71.5t44.5 -92.5t16 -108.5q0 -51 -11.5 -99t-38.5 -94q-20 -32 -42 -54.5t-54 -42.5q11 -10 16.5 -13.5t18.5 -8.5z" />
    <glyph glyph-name="R" unicode="R" horiz-adv-x="605" 
d="M67 587q36 -5 67 -24t57 -45v-515h-124v584zM463 609q21 -17 34.5 -50t13.5 -69q0 -39 -12 -76.5t-35 -67t-57.5 -47t-80.5 -17.5h-12.5t-20.5 1.5t-19.5 4t-8.5 7.5v111q0 -3 5 -5t11.5 -4t13.5 -3.5t11 -1.5q21 -2 39.5 4.5t33 19.5t22.5 30.5t8 36.5q0 35 -28.5 62
t-79.5 27q-20 0 -36 -6q-3 0 -12 -3t-18.5 -7.5t-17.5 -9t-8 -7.5l1 -1q-10 10 -24.5 21.5t-31 21.5t-34 17.5t-32.5 10.5q15 15 37 27.5t47.5 21.5t53.5 13.5t56 4.5q50 0 97.5 -15.5t83.5 -51.5zM555 32q2 -2 7 -8t12 -12q7 -7 17 -16h-121q-20 16 -36.5 32t-24.5 37
q-9 26 -11.5 47.5t-2.5 42.5t-6 44t-22 34q-5 5 -12 8.5t-15 11.5q64 0 117 42q21 -14 33 -33.5t18 -42t8 -46t2 -45.5q0 -16 2 -27.5t6.5 -22t11.5 -21.5t17 -25z" />
    <glyph glyph-name="S" unicode="S" horiz-adv-x="516" 
d="M396 343q38 -29 61.5 -67t23.5 -89q0 -47 -18 -79t-44.5 -52.5t-57.5 -32t-57.5 -16.5t-43.5 -6t-16 -1q19 21 37 48q14 23 28 57t19 76q0 29 -23 47.5t-56.5 34.5t-71 32t-66.5 40q-32 26 -56 64t-24 83q0 49 17 82.5t43 55t56.5 33t57 17t45.5 6t21 0.5q1 0 -12 -13
t-28.5 -36.5t-29 -57t-13.5 -73.5q0 -27 22 -45.5t54 -35t68 -33.5t64 -39zM285 558q-11 0 -25 -1t-31 -7q17 48 39 79t38 47q16 0 37 -2.5t43 -8.5t42.5 -15t37.5 -22q-16 -21 -26.5 -50.5t-21.5 -61.5q-27 16 -61 29t-72 13zM222 121h27t29 5q-16 -42 -38 -73.5t-39 -52.5
q-20 2 -32.5 3.5t-28.5 5.5q-21 5 -35.5 10t-25 10t-19 10t-18.5 10q15 26 29 53t19 60q26 -17 60 -29t72 -12z" />
    <glyph glyph-name="T" unicode="T" horiz-adv-x="580" 
d="M352 0h-125v518h125v-518zM550 612q0 -27 -5 -44.5t-16 -17.5h-480q-10 0 -15 17t-5 44q0 26 5 44.5t15 18.5h480q11 0 16 -18t5 -44z" />
    <glyph glyph-name="U" unicode="U" horiz-adv-x="638" 
d="M572 299q0 -78 -18 -135.5t-51.5 -95.5t-81 -56.5t-106.5 -18.5q-57 0 -103 18t-78.5 56t-49.5 96t-17 138v376q22 -3 46 -7.5t43 -13t31.5 -22.5t12.5 -36v-308q0 -88 33.5 -129t84.5 -41q54 0 87.5 40t33.5 130v308q0 22 12.5 36t31.5 22.5t42.5 13t46.5 7.5v-378z" />
    <glyph glyph-name="V" unicode="V" horiz-adv-x="593" 
d="M436 667q36 11 71.5 9.5t68.5 -14.5l-171 -589q-10 -21 -26 -37q-14 -14 -34 -25t-49 -11t-48.5 11t-33.5 25q-16 16 -26 37l-171 589q32 13 68 14.5t71 -9.5l140 -539l140 539v0z" />
    <glyph glyph-name="W" unicode="W" horiz-adv-x="813" 
d="M644 663q33 11 69 11q34 0 66 -9l-105 -592q-9 -20 -21 -36q-11 -14 -27 -25t-39 -11t-38.5 11t-26.5 25q-12 16 -21 36l-63 344l54 228l95 -485zM348 667q13 3 26 5t27 2q31 0 66 -11l-152 -590q-9 -20 -21 -36q-11 -14 -28 -25t-40 -11q-22 0 -37.5 11t-26.5 25
q-12 16 -21 36l-107 589q35 11 73 11q29 0 61 -8l58 -505z" />
    <glyph glyph-name="X" unicode="X" horiz-adv-x="603" 
d="M27 662q36 13 74 13q39 0 74 -15l398 -657h-148zM211 306l73 -125l-108 -179h-149zM318 483l106 176q37 16 76 16q18 0 36.5 -3.5t36.5 -9.5l-182 -304z" />
    <glyph glyph-name="Y" unicode="Y" horiz-adv-x="586" 
d="M374 276l-62 133l124 261q15 2 30 3t30 1q43 0 78 -7zM154 670l210 -453v-217h-140v261l-210 406q19 4 39 5.5t40 1.5q15 0 30 -1t31 -3z" />
    <glyph glyph-name="Z" unicode="Z" horiz-adv-x="590" 
d="M318 556h-291q2 18 5 39t10 39t18.5 30t29.5 12h299zM169 3h-128q-5 0 -9.5 5.5t-4.5 16.5l163 261l240 390h128q6 0 7 -8t1 -13l-206 -341zM552 81q10 -20 12 -40.5t2 -37.5h-356l72 120q87 0 136 1.5t75.5 -1t37.5 -12t21 -30.5z" />
    <glyph glyph-name="A" unicode="A" horiz-adv-x="633" 
d="M468 1l-48 178q-14 -7 -34.5 -13.5t-44.5 -6.5q-18 0 -32 3.5t-24 8.5q-11 5 -21 12l22 99q7 -3 15 -5q7 -2 16.5 -3t20.5 -1q10 0 26.5 3t26.5 13l-78 266l-154 -554h-140l182 604q10 19 27 35q14 13 35 24t50 11t50.5 -11t35.5 -24q16 -16 27 -35l183 -604h-141z" />
    <glyph glyph-name="B" unicode="B" horiz-adv-x="587" 
d="M482 340q21 -21 35 -51t14 -67q0 -44 -15 -84t-42 -71t-64 -49t-80 -18q-3 0 -14 0.5t-23.5 2.5t-22.5 6t-10 12v111q20 -5 35.5 -6t29.5 -1q21 0 38 7.5t29.5 20.5t19 29.5t6.5 33.5q0 15 -6.5 28.5t-16.5 24t-22 17t-23 6.5q41 6 75 27q14 9 24 19.5t13 17.5q3 -2 7 -5
q3 -2 6.5 -5.5t6.5 -5.5zM66 590q42 -5 74 -24t58 -45v-521h-132v590zM441 617q15 -15 31.5 -43.5t16.5 -60.5q0 -42 -14 -77.5t-37.5 -61.5t-55 -40.5t-66.5 -14.5q-23 0 -42.5 4t-20.5 10v104q0 -4 6.5 -6.5t15.5 -4t18.5 -1.5h15.5q15 1 30 6t27 14.5t19 23.5t7 33
q0 36 -30 60t-81 23q-18 0 -42 -7.5t-35 -21.5l1 -1q-21 21 -54 39t-65 23q45 31 87.5 46t99.5 15q45 0 88.5 -14.5t79.5 -46.5z" />
    <glyph glyph-name="C" unicode="C" horiz-adv-x="601" 
d="M180 336q0 -59 18.5 -111.5t51.5 -96.5t79 -77t100 -51q-24 -3 -47 -3q-73 0 -136 26t-109.5 72t-73 107.5t-26.5 133.5t25.5 134t70.5 108.5t106.5 73t134.5 26.5q11 0 29.5 -2.5t29.5 -2.5q-54 -16 -100.5 -47.5t-80.5 -76t-53 -98.5t-19 -115zM387 123q25 2 43.5 5
t32.5 7t25 10t23 14q6 -26 21 -55.5t37 -50.5q-22 -15 -50.5 -25.5t-57.5 -15.5q-24 13 -50 27.5t-50.5 30t-45 33t-34.5 35.5q17 -5 46.5 -11t59.5 -4zM461 660q33 -5 59.5 -15t48.5 -20q-22 -27 -37 -54.5t-21 -59.5q-27 16 -54 26.5t-73 14.5q-38 1 -62 -3t-41 -9
q14 18 34.5 35t45 32.5t50.5 28.5t50 24z" />
    <glyph glyph-name="D" unicode="D" horiz-adv-x="633" 
d="M70 641q38 -17 72.5 -41.5t60.5 -55.5v-541h-133v533v105zM210 677q94 0 164.5 -26t116.5 -71.5t69 -106.5t23 -131q0 -62 -18.5 -118t-56.5 -100t-95 -74t-133 -40v104q40 10 71 33.5t53 55t33.5 67.5t11.5 72q0 44 -14.5 85.5t-43 74t-72 53t-101.5 23.5q-27 26 -59 47
t-68 36q23 8 55 12t64 4z" />
    <glyph glyph-name="zero" unicode="0" horiz-adv-x="527" 
d="M422 565q31 -48 46 -103.5t15 -118.5q0 -136 -61 -228q-26 -46 -64 -76t-79 -35v125q30 16 55.5 70.5t25.5 143.5q0 84 -25.5 137.5t-55.5 70.5v125q41 -6 79 -35.5t64 -75.5zM155 343q0 -44 8.5 -80t21 -63t28.5 -45t31 -26v-125q-46 5 -82.5 35t-67.5 76
q-26 47 -40.5 103.5t-14.5 124.5q0 63 14.5 118.5t40.5 103.5q31 46 67.5 75.5t82.5 35.5v-125q-15 -8 -31 -26t-28.5 -44.5t-21 -61t-8.5 -76.5z" />
    <glyph glyph-name="one" unicode="1" horiz-adv-x="307" 
d="M83 677q39 -11 74 -30.5t64 -46.5v-601h-138v671v7v0z" />
    <glyph glyph-name="two" unicode="2" horiz-adv-x="520" 
d="M445 4h-398v111h398v-111zM416 612q15 -13 27 -31.5t19.5 -40.5t11.5 -44.5t4 -43.5q0 -88 -40.5 -143t-117.5 -68q-20 -5 -41 -11t-38 -15.5t-29 -25t-15 -38.5h-150q0 26 8 51.5t22 47.5t33 40t40 29q27 14 52.5 22.5t56.5 18.5q16 5 31.5 10t28 13.5t20.5 23.5t8 41
q0 45 -27 66.5t-68 21.5q-18 0 -32 -7.5t-24.5 -17.5t-18 -20.5t-13.5 -17.5l-103 55q5 31 26 58t50.5 47t63.5 31t65 11q41 0 80 -15.5t70 -47.5z" />
    <glyph glyph-name="three" unicode="3" horiz-adv-x="527" 
d="M473 467q0 -38 -11.5 -72.5t-40.5 -60.5q-26 -24 -53.5 -34.5t-52.5 -13.5q-13 -2 -33 -3t-39 0t-32.5 4.5t-13.5 11.5v78q0 5 4 9t9 4q8 0 16 -0.5t16 -0.5q16 0 33.5 4t31.5 13t23 23.5t9 35.5q0 32 -24 58q-16 16 -35 18.5t-36 2.5q-12 0 -27 -4.5t-29 -13t-23.5 -20
t-9.5 -25.5q0 2 -17.5 11.5t-37.5 19.5q-25 11 -55 25q29 72 87 106t127 34q51 0 91 -19t67 -49.5t41.5 -68t14.5 -73.5zM388 275q3 1 10.5 5.5t15.5 10t15 11.5t10 12q15 -21 24.5 -50t9.5 -55q0 -41 -15.5 -79t-43.5 -67t-67.5 -46.5t-87.5 -17.5q-69 0 -127 34t-87 106
l110 49q0 -11 9.5 -21t23.5 -17.5t29.5 -12.5t26.5 -5q15 0 32 1.5t31 9.5t23 23.5t9 44.5q0 13 -4 25t-14 22q14 0 34.5 5.5t32.5 11.5z" />
    <glyph glyph-name="four" unicode="4" horiz-adv-x="527" 
d="M307 672q41 -10 76.5 -28t66.5 -50v-594h-143v672zM273 672v-212l-103 -191h103v-121h-246v106z" />
    <glyph glyph-name="five" unicode="5" horiz-adv-x="524" 
d="M56 411q21 3 44 6q20 2 45 4t51 2q1 0 22 0.5t51.5 -4t66.5 -16.5t66.5 -37.5t50.5 -66.5t20 -103q0 -46 -16 -79t-41 -56t-56.5 -37t-62.5 -21.5t-58 -10t-44 -2.5q-29 0 -54 2t-44 5q-22 3 -41 7v121q12 -7 27 -11q13 -4 31 -7t39 -3q18 0 49 2.5t60 12.5t50.5 30
t21.5 55q0 37 -21.5 58.5t-50 32t-57.5 13t-44 2.5q-28 0 -53 -2t-50 -5zM202 454q-21 0 -43 -0.5t-41.5 -2t-35 -3t-23.5 -2.5l-3 186q0 10 1.5 20t11.5 15q2 2 18 3.5t38 2t44.5 1t38.5 0.5h237v-121h-243v-99z" />
    <glyph glyph-name="six" unicode="6" horiz-adv-x="555" 
d="M327 453q37 0 71 -14.5t60 -41.5t41.5 -66.5t15.5 -89.5t-16 -94t-45.5 -76.5t-71 -51.5t-91.5 -19q-59 0 -104.5 22.5t-76 62t-46 92.5t-15.5 114q0 91 29.5 164t81.5 126q31 32 65 51.5t70 29.5t74 12t77 -1v-120q-12 4 -24 5.5t-33 1.5q-52 0 -90 -20.5t-62 -49.5
q-26 -31 -41 -78t-15 -121q0 -26 6.5 -56t20 -55.5t35.5 -42.5t52 -17q24 0 40.5 9.5t27 24.5t15.5 34.5t5 39.5q0 48 -28.5 80t-75.5 32q-20 0 -38 -9t-28 -25q0 33 4.5 60.5t19.5 59.5q16 16 39.5 21.5t50.5 5.5z" />
    <glyph glyph-name="seven" unicode="7" horiz-adv-x="513" 
d="M44 551q5 36 11 68t16 58h402v-126h-7h-422zM58 -1q49 101 97 198q20 41 41.5 85.5t42.5 87t40.5 82t35.5 71.5h145l-249 -524h-153z" />
    <glyph glyph-name="eight" unicode="8" horiz-adv-x="524" 
d="M261 285q-44 0 -83 16t-68 43t-46 62.5t-17 75.5t17 75.5t46 62.5t68 43t83 16t82.5 -16t67.5 -43t46 -62.5t17 -75.5t-17 -75.5t-46 -62.5t-67.5 -43t-82.5 -16zM261 573q-42 0 -69.5 -27t-27.5 -64t27.5 -63.5t69.5 -26.5t65.5 26.5t23.5 63.5t-23.5 64t-65.5 27z
M322 265q17 -11 22.5 -30t5.5 -40q0 -37 -23.5 -64t-65.5 -27t-69.5 27t-27.5 64q0 21 6 40t22 30q-26 5 -54.5 19t-49.5 30q-41 -44 -41 -119q0 -40 17 -75.5t46 -62.5t68 -43t83 -16t82.5 16t67.5 43t46 62.5t17 75.5q0 37 -14 64.5t-34 54.5q-21 -16 -46.5 -30t-57.5 -19
z" />
    <glyph glyph-name="nine" unicode="9" horiz-adv-x="552" 
d="M234 225q-37 0 -71 14.5t-60.5 41.5t-42 66.5t-15.5 89.5t16 94t45.5 76.5t71 51.5t92.5 19q60 0 105.5 -22.5t76.5 -61.5t46.5 -92t15.5 -114q0 -91 -29.5 -164.5t-81.5 -126.5q-32 -32 -66 -51t-70.5 -29t-74.5 -12t-78 1v120q12 -4 24 -5.5t34 -1.5q52 0 90.5 20.5
t62.5 49.5q26 30 41 77t15 122q0 26 -6.5 56t-20.5 55.5t-35.5 42t-52.5 16.5q-24 0 -41 -9.5t-27.5 -24.5t-15 -34.5t-4.5 -38.5q0 -48 28.5 -80.5t76.5 -32.5q20 0 38 9t28 26q0 -33 -4.5 -61t-19.5 -59q-16 -17 -40 -22.5t-51 -5.5z" />
    <glyph glyph-name="exclam" unicode="!" horiz-adv-x="268" 
d="M204 55q0 -17 -7 -30t-18 -22.5t-24 -14.5t-24 -5q-32 0 -51.5 19.5t-19.5 52.5t19.5 52.5t51.5 19.5q11 0 24 -5t24 -14.5t18 -23t7 -29.5zM189 647q7 -6 10 -29.5t2.5 -57.5t-4 -74.5t-7.5 -82.5q-11 -98 -29 -218h-30h-29q-17 118 -27 216q-4 42 -7.5 82.5t-4 74.5
t1.5 57.5t8 31.5q10 12 28.5 20.5t29.5 8.5t25.5 -6.5t32.5 -22.5z" />
    <glyph glyph-name="quotedbl" unicode="&#x22;" horiz-adv-x="397" 
d="M117 422h-22l-45 138q-9 28 -9 47q0 22 19 38t47 16q29 0 46.5 -16.5t17.5 -35.5q0 -15 -11 -49zM299 422h-22l-45 138q-9 28 -9 47q0 22 19 38t47 16q29 0 46.5 -16.5t17.5 -35.5q0 -15 -11 -49z" />
    <glyph glyph-name="numbersign" unicode="#" horiz-adv-x="550" 
d="M482 382h-66v-134h66v-105h-66v-146h-93v146h-93v-146h-93v146h-66v105h66v134h-66v106h66v132h93v-132h93v132h93v-132h66v-106zM323 382h-93v-134h93v134z" />
    <glyph glyph-name="dollar" unicode="$" horiz-adv-x="499" 
d="M60 448q0 42 18.5 73.5t47.5 51.5t65.5 30t72.5 10q26 0 51 -4t48 -12q2 -1 13 -5t24 -9t23 -9t9 -4q-14 -21 -25.5 -45.5t-19.5 -50.5q0 3 -12 9t-31.5 12.5t-43.5 11t-48 4.5q-26 0 -44 -11t-18 -42q0 -27 19.5 -44.5t47.5 -31t59 -27t54 -32.5q29 -24 48.5 -57
t19.5 -73q0 -44 -18 -75.5t-47 -51.5t-65 -29.5t-72 -9.5q-26 0 -51.5 5t-49.5 11q-6 1 -17.5 5.5l-23 9t-20 8.5l-8.5 4q17 20 27 45t18 51q0 -4 12.5 -10.5t32 -12.5t43 -10.5t46.5 -4.5q25 0 44.5 10.5t19.5 39.5q0 28 -19.5 46.5t-47 32.5t-58.5 27.5t-54 32.5
q-29 24 -49.5 57.5t-20.5 73.5zM200 8q9 -1 18.5 -1.5t18.5 -0.5q34 0 61 7v-95h-98v90zM298 632q-9 1 -18.5 1.5t-18.5 0.5q-33 0 -61 -7v99h98v-94z" />
    <glyph glyph-name="percent" unicode="%" horiz-adv-x="643" 
d="M207 508q0 -16 -7 -31t-19 -27t-27 -19t-31 -7t-31.5 7t-27.5 19t-19 27t-7 31t7 31t19 27t27.5 19t31.5 7t31 -7t27 -19t19 -27t7 -31zM587 100q0 -16 -7 -31t-19 -27t-27.5 -19.5t-31.5 -7.5q-21 0 -36.5 7.5t-26 19.5t-16 27t-5.5 31t5.5 31t16 27t26 19.5t36.5 7.5
q16 0 31.5 -7.5t27.5 -19.5t19 -27t7 -31zM207 1l-84 42l295 578l84 -43z" />
    <glyph glyph-name="ampersand" unicode="&#x26;" horiz-adv-x="603" 
d="M500 53l-57 -62q-11 12 -21.5 24.5t-19.5 26.5q-8 7 -17 21q-45 -37 -96 -53.5t-110 1.5q-36 12 -63.5 35.5t-43.5 55t-19.5 68t8.5 73.5q20 59 68 95l64 -77q-24 -17 -33 -47q-11 -35 2 -66t46 -42q32 -10 61 0t54 30q-23 27 -46 55t-46 57q-21 23 -43.5 48.5
t-39.5 54.5t-23 62t6 72q9 31 29.5 55t47.5 38t58 17.5t61 -6.5q31 -9 54.5 -29.5t37.5 -48t17 -59.5t-7 -64q-14 -41 -45.5 -69t-71.5 -38l69 -83q16 22 30 44.5t24.5 42.5t17 36t9.5 25l91 -31q-5 -16 -14.5 -38.5t-23.5 -48.5t-32.5 -53.5t-39.5 -53.5zM257 367
q28 -9 53 6t34 44t-3 55.5t-38 34.5q-29 9 -54.5 -6t-35.5 -44q-5 -18 -2 -35t11 -31l9 -9q5 -5 11.5 -9.5t14.5 -5.5z" />
    <glyph glyph-name="quotesingle" unicode="'" horiz-adv-x="205" 
d="M118 436h-24l-48 148q-10 31 -10 51q0 24 20.5 41t50.5 17q31 0 50 -17.5t19 -38.5q0 -16 -12 -53z" />
    <glyph glyph-name="parenleft" unicode="(" horiz-adv-x="288" 
d="M143 328q0 -106 23 -199.5t75 -178.5q-7 -4 -19 -6.5t-26 -3t-28 2t-25 7.5q-41 85 -69.5 181t-28.5 212q0 105 28.5 201t69.5 190q29 7 58 2t40 -16q-52 -84 -75 -179.5t-23 -212.5z" />
    <glyph glyph-name="asterisk" unicode="*" horiz-adv-x="454" 
d="M430 535q2 -11 0.5 -20t-5.5 -16q-4 -8 -11 -14l-145 -26l103 -109q1 -8 -1 -16q-2 -7 -6 -15.5t-13 -15.5t-17.5 -8.5t-16.5 0.5q-9 1 -17 5l-78 130l-77 -130q-7 -4 -16 -5q-8 -2 -17 -0.5t-17 8.5q-10 7 -13.5 15.5t-5.5 15.5q-2 8 0 16l102 109l-143 26q-7 6 -11 14
q-4 7 -5.5 16t1.5 20q4 12 10.5 18.5t12.5 10.5q7 4 15 6l140 -63l-18 153q5 8 11 14q5 5 13.5 9.5t21.5 4.5q11 0 19 -5t13 -10q6 -6 10 -14l-18 -152l137 63q9 -2 17 -6q7 -4 14 -10.5t11 -18.5z" />
    <glyph glyph-name="plus" unicode="+" horiz-adv-x="596" 
d="M569 324v-109h-219v-218h-109v218h-203v109h203v219h109v-219h219v0z" />
    <glyph glyph-name="comma" unicode="," 
d="M228 126q6 -37 0 -67q-5 -37 -21.5 -71t-42.5 -64q-3 -3 -14 -14.5t-24 -24t-25 -21.5t-17 -7l-34 16q18 16 35 34q14 16 27.5 38t20.5 48q4 11 4.5 28t-4.5 27q-19 -5 -36 -1.5t-30 13.5t-21 25.5t-9 33.5q0 18 7.5 34t20.5 28.5t30 20t37 8.5q45 1 68 -24.5t28 -59.5z
" />
    <glyph glyph-name="hyphen" unicode="-" horiz-adv-x="322" 
d="M289 211h-276l15 102h276l-15 -102v0z" />
    <glyph glyph-name="period" unicode="." 
d="M130 -2q-37 0 -60.5 24.5t-23.5 62.5q0 40 24 64.5t62 24.5q37 0 60 -24t24 -65q0 -38 -23.5 -62.5t-62.5 -24.5z" />
    <glyph glyph-name="slash" unicode="/" horiz-adv-x="331" 
d="M213 697h98l-195 -697h-98l195 697v0z" />
    <glyph glyph-name="parenright" unicode=")" horiz-adv-x="305" 
d="M143 328q0 117 -23 212.5t-75 179.5q11 11 40 16t58 -2q41 -94 69.5 -190t28.5 -201q0 -116 -28.5 -212t-69.5 -181q-11 -5 -25 -7.5t-28 -2t-26 3t-19 6.5q52 85 75 178.5t23 199.5z" />
    <glyph glyph-name="backslash" unicode="\" horiz-adv-x="331" 
d="M116 697l195 -697h-98l-195 697h98z" />
    <glyph glyph-name="colon" unicode=":" 
d="M222 408q0 -38 -25 -62.5t-66 -24.5q-12 0 -27 6.5t-28.5 18t-22.5 27.5t-9 35q0 21 9 37.5t22.5 28.5t28.5 18.5t27 6.5q41 0 66 -24.5t25 -66.5zM222 89q0 -42 -25 -64.5t-66 -22.5q-12 0 -27 6t-28.5 17t-22.5 27t-9 37q0 20 9 37t22.5 29t28.5 18.5t27 6.5
q41 0 66 -25t25 -66z" />
    <glyph glyph-name="semicolon" unicode=";" 
d="M217 405q0 -36 -25 -62t-63 -26q-17 0 -32 7t-26.5 19t-18.5 28t-7 34q0 37 25 61.5t59 24.5q38 0 63 -24.5t25 -61.5zM223 121q-5 33 -25.5 57t-62.5 23q-19 0 -35 -7t-28 -19t-18.5 -27.5t-4.5 -31.5q0 -17 7 -31t19 -23.5t27.5 -12.5t32.5 2q5 -11 3.5 -25.5
t-3.5 -25.5q-7 -25 -19.5 -45t-25.5 -35q-15 -18 -31 -31l30 -16q4 -2 15.5 7t24.5 20.5t23.5 22l12.5 12.5q23 26 38 59t20 66q2 16 3 30.5t-3 30.5z" />
    <glyph glyph-name="less" unicode="&#x3c;" horiz-adv-x="551" 
d="M495 528v-100l-357 -157l358 -171l-1 -99l-370 171q-20 9 -36 23q-14 12 -25 31t-11 45q0 22 11 40t25 32q16 16 36 28z" />
    <glyph glyph-name="equal" unicode="=" horiz-adv-x="564" 
d="M502 324h-443l32 95h443l-32 -95v0zM471 118h-443l31 96h443l-31 -96v0z" />
    <glyph glyph-name="question" unicode="?" horiz-adv-x="399" 
d="M226 79q0 -15 -6 -29t-16.5 -24.5t-25 -17t-30.5 -6.5q-30 0 -51 23t-21 54q0 30 21 53t51 23q16 0 30.5 -6.5t25 -17t16.5 -24t6 -28.5zM96 213l-4 5v48.5t4.5 51.5t16 50.5t35.5 45.5q8 7 18 12.5t20.5 11.5t20 12.5t15.5 14.5q9 10 13 23t4 26.5t-4 25.5t-13 20
q-12 11 -29.5 15.5t-38 3t-42 -8t-40.5 -16.5l-25 98q28 13 61.5 20.5t68 6t68.5 -12.5t62 -35q24 -23 34.5 -53t10.5 -62.5t-10.5 -63t-28.5 -54.5q-17 -22 -39 -33t-40 -28q-20 -20 -23.5 -48.5t-1.5 -70.5v-5h-113z" />
    <glyph glyph-name="at" unicode="@" horiz-adv-x="708" 
d="M493 32q-39 -19 -76 -25.5t-85 -6.5q-54 0 -103 19.5t-86.5 56t-60 88.5t-22.5 117q0 69 23.5 131t66 108.5t103 74t135.5 27.5q57 0 105 -19t83.5 -53.5t55 -82t19.5 -104.5q0 -48 -12.5 -87.5t-34.5 -67t-53 -42.5t-67 -15q-29 0 -50 16.5t-24 53.5h-1
q-43 -70 -114 -70q-42 0 -69.5 31.5t-27.5 86.5q0 41 14 78.5t40.5 66t64.5 45.5t86 17q41 0 65.5 -24t24.5 -73q0 -17 -2.5 -35.5t-5.5 -35.5t-5.5 -32.5t-2.5 -27.5q0 -20 6.5 -28.5t20.5 -8.5t28.5 9.5t26.5 28t19.5 47t7.5 66.5q0 44 -13.5 83t-39.5 68.5t-65 46.5
t-90 17q-50 0 -95.5 -20.5t-80 -58t-55 -90.5t-20.5 -117q0 -57 16.5 -98t45.5 -67.5t70 -39.5t90 -13q35 0 68.5 7t59.5 19zM410 398q-3 5 -10 8.5t-14 3.5q-21 0 -38 -12t-29 -29.5t-18.5 -38t-6.5 -36.5q0 -20 9 -36.5t33 -16.5q19 0 34 12.5t26 31.5t17 41t6 42
q0 8 -2 16t-7 14z" />
    <glyph glyph-name="bracketleft" unicode="[" horiz-adv-x="279" 
d="M230 631h-70v-625h70v-71h-170v15v56v625v56v14h170v-70v0z" />
    <glyph glyph-name="bracketright" unicode="]" horiz-adv-x="280" 
d="M49 701h170v-14v-56v-625v-56v-15h-170v71h70v625h-70v70z" />
    <glyph glyph-name="asciicircum" unicode="^" horiz-adv-x="596" 
d="M292 525l-143 -314q-6 -14 -20 -23t-27 -9h-56q-23 0 -23 19q0 6 4 13l200 407q6 13 20.5 22.5t28.5 9.5h34q15 0 29.5 -9.5t20.5 -22.5l200 -407q3 -8 3 -13q0 -19 -23 -19h-58q-14 0 -28 9t-19 23z" />
    <glyph glyph-name="underscore" unicode="_" horiz-adv-x="500" 
d="M503 62l-16 -65h-487l16 65h487v0z" />
    <glyph glyph-name="grave" unicode="`" horiz-adv-x="276" 
d="M252 534h-115l-116 158h147l84 -158v0z" />
    <glyph glyph-name="braceleft" unicode="{" horiz-adv-x="295" 
d="M184 490q-1 -20 -3 -44t-6 -47.5t-11.5 -43t-19.5 -29.5q14 -15 22.5 -35.5t13 -44.5t6.5 -49t3 -48q2 -36 4.5 -61t10 -40t21.5 -21.5t39 -6.5v-89q-45 0 -83 19.5t-56 57.5q-12 30 -15.5 65.5t-4.5 70.5q-2 36 -5.5 61.5t-11.5 41.5t-23.5 23.5t-42.5 7.5v89
q25 0 39.5 6.5t22 21.5t10 40t3.5 61t5.5 72.5t18.5 66.5q18 39 57 58.5t86 19.5v-88q-26 0 -41 -7.5t-23 -24t-11 -42t-5 -61.5z" />
    <glyph glyph-name="bar" unicode="|" horiz-adv-x="283" 
d="M197 778v-894h-106v894h106z" />
    <glyph glyph-name="asciitilde" unicode="~" horiz-adv-x="596" 
d="M583 399q0 -35 -8.5 -69.5t-28 -61.5t-51 -44t-77.5 -17q-42 0 -76.5 14.5t-69.5 31.5q-19 9 -42.5 20.5t-46.5 11.5q-11 0 -20 -3t-16 -11t-10.5 -23t-3.5 -40h-116q0 25 6 58t23.5 62.5t49 50t81.5 20.5q30 0 60 -8.5t59 -21.5q12 -5 26 -13.5t29.5 -16.5t31.5 -13.5
t31 -5.5q9 0 18.5 2t17 10t12.5 23.5t5 43.5h116z" />
    <glyph glyph-name="braceright" unicode="}" horiz-adv-x="301" 
d="M109 490q-2 36 -5 61.5t-11 42t-23 24t-41 7.5v88q46 0 85.5 -19.5t57.5 -58.5q14 -31 18 -67t6 -72q1 -36 3.5 -61t10 -40t22 -21.5t39.5 -6.5v-89q-27 0 -42.5 -7.5t-24 -23.5t-11.5 -41.5t-5 -61.5q-1 -35 -4.5 -70.5t-15.5 -65.5q-18 -38 -56 -57.5t-83 -19.5v89
q25 0 39 6.5t21.5 21.5t10 40t4.5 61q1 23 3 48.5t6.5 49t13 44.5t22.5 35q-12 10 -19.5 29.5t-11.5 43t-6 47.5t-3 44z" />
    <glyph glyph-name="quoteleft" unicode="&#x2018;" horiz-adv-x="233" 
d="M36 469q-5 31 0 55q9 64 53 112q2 3 11 12.5t20 19.5t21 17.5t14 5.5l28 -13q-16 -13 -29 -28q-11 -14 -23 -31.5t-17 -38.5q-2 -10 -2.5 -24t2.5 -22q16 4 30.5 1t25 -11t17 -20.5t7.5 -27.5q0 -15 -6 -28.5t-17 -24t-25.5 -16.5t-30.5 -7q-19 -1 -33 4.5t-23.5 15.5
t-15 22.5t-7.5 26.5z" />
    <glyph glyph-name="quotedblleft" unicode="&#x201c;" horiz-adv-x="424" 
d="M237 464q-5 31 0 55q9 64 53 112q2 3 11 12.5t20 19.5t21 17.5t14 5.5l28 -13q-16 -13 -29 -28q-11 -14 -23 -31.5t-17 -38.5q-2 -10 -2.5 -24t2.5 -22q16 4 30.5 1t25 -11t17 -20.5t7.5 -27.5q0 -15 -6 -28.5t-17 -24t-25.5 -16.5t-30.5 -7q-19 -1 -33 4.5t-23.5 15.5
t-15 22.5t-7.5 26.5zM31 464q-5 31 0 55q9 64 53 112q2 3 11 12.5t20 19.5t21 17.5t14 5.5l28 -13q-16 -13 -29 -28q-11 -14 -23 -31.5t-17 -38.5q-2 -10 -2.5 -24t2.5 -22q16 4 30.5 1t25 -11t17 -20.5t7.5 -27.5q0 -15 -6 -28.5t-17 -24t-25.5 -16.5t-30.5 -7
q-19 -1 -33 4.5t-23.5 15.5t-15 22.5t-7.5 26.5z" />
    <glyph glyph-name="quoteright" unicode="&#x2019;" horiz-adv-x="237" 
d="M195 625q5 -31 0 -55q-9 -64 -53 -112q-2 -3 -11 -12.5t-20 -19.5t-21 -17.5t-14 -5.5l-28 13q16 12 29 28q11 13 22.5 31t17.5 39q2 10 2.5 24t-2.5 22q-16 -5 -30.5 -1.5t-25 11.5t-17 20.5t-7.5 27.5q0 15 6 28.5t17 24t25.5 16.5t30.5 7q37 1 56 -20t23 -49z" />
    <glyph glyph-name="quotedblright" unicode="&#x201d;" horiz-adv-x="433" 
d="M186 620q5 -31 0 -55q-9 -64 -53 -112q-2 -3 -11 -12.5t-20 -19.5t-21 -17.5t-14 -5.5l-28 13q16 12 29 28q11 13 22.5 31t17.5 39q2 10 2.5 24t-2.5 22q-16 -5 -30.5 -1.5t-25 11.5t-17 20.5t-7.5 27.5q0 15 6 28.5t17 24t25.5 16.5t30.5 7q37 1 56 -20t23 -49zM392 620
q5 -31 0 -55q-9 -64 -53 -112q-2 -3 -11 -12.5t-20 -19.5t-21 -17.5t-14 -5.5l-28 13q16 12 29 28q11 13 22.5 31t17.5 39q2 10 2.5 24t-2.5 22q-16 -5 -30.5 -1.5t-25 11.5t-17 20.5t-7.5 27.5q0 15 6 28.5t17 24t25.5 16.5t30.5 7q37 1 56 -20t23 -49z" />
    <glyph glyph-name="quotedblbase" unicode="&#x201e;" horiz-adv-x="439" 
d="M195 107q5 -31 0 -55q-9 -64 -53 -112q-2 -3 -11 -12.5t-20 -19.5t-21 -17.5t-14 -5.5l-28 13q16 12 29 28q11 13 22.5 31t17.5 39q2 10 2.5 24t-2.5 22q-16 -5 -30.5 -1.5t-25 11.5t-17 20.5t-7.5 27.5q0 15 6 28.5t17 24t25.5 16.5t30.5 7q37 1 56 -20t23 -49zM401 107
q5 -31 0 -55q-9 -64 -53 -112q-2 -3 -11 -12.5t-20 -19.5t-21 -17.5t-14 -5.5l-28 13q16 12 29 28q11 13 22.5 31t17.5 39q2 10 2.5 24t-2.5 22q-16 -5 -30.5 -1.5t-25 11.5t-17 20.5t-7.5 27.5q0 15 6 28.5t17 24t25.5 16.5t30.5 7q37 1 56 -20t23 -49z" />
    <glyph glyph-name="quotesinglbase" unicode="&#x201a;" horiz-adv-x="231" 
d="M192 108q5 -31 0 -55q-9 -64 -53 -112q-2 -3 -11 -12.5t-20 -19.5t-21 -17.5t-14 -5.5l-28 13q16 12 29 28q11 13 22.5 31t17.5 39q2 10 2.5 24t-2.5 22q-16 -5 -30.5 -1.5t-25 11.5t-17 20.5t-7.5 27.5q0 15 6 28.5t17 24t25.5 16.5t30.5 7q37 1 56 -20t23 -49z" />
    <glyph glyph-name="greater" unicode="&#x3e;" horiz-adv-x="548" 
d="M425 371q20 -12 36 -28q14 -14 25 -32t11 -40q0 -26 -11 -45t-25 -31q-16 -14 -36 -23l-370 -171l-1 99l358 171l-357 157v100l370 -157v0z" />
    <glyph glyph-name="G" unicode="G" horiz-adv-x="636" 
d="M565 304q15 -26 22.5 -62t5 -72.5t-16 -70.5t-39.5 -57q-14 -13 -32.5 -18.5t-28.5 -6.5l-129 84q16 0 34 4t34 9q26 11 40.5 31t18 42.5t-4 44t-26.5 36.5t-44 26.5t-48 20t-41.5 14.5t-23.5 9v15h231q16 -11 27.5 -22t20.5 -27zM389 580q-46 0 -83 -17.5t-63.5 -47
t-41.5 -68t-17 -80.5v-29q0 -58 19 -111.5t53.5 -98t82 -77.5t104.5 -49h-49q-74 0 -139.5 26t-115 71.5t-78 107t-28.5 131.5q0 32 5.5 62.5t15.5 56.5q23 55 61 97t85 70t100.5 40.5t107.5 9.5q38 -2 63 -8t39.5 -13t20 -13t5.5 -8q-3 -20 -15 -40t-32 -40
q-21 17 -47.5 22.5t-52.5 5.5z" />
    <glyph glyph-name="E" unicode="E" horiz-adv-x="535" 
d="M463 675q22 -54 0 -106h-247q-26 32 -65 60.5t-77 45.5h389zM463 393q22 -52 0 -106h-268v-49v-78v-27q-22 -38 -56 -62.5t-72 -35.5v104v21v36v84v14v93v27v120v112q38 -16 69.5 -41t58.5 -57v-134v-21h268zM463 -1h-382q38 16 75.5 44.5t59.5 60.5h247q22 -51 0 -105z
" />
    <glyph glyph-name="F" unicode="F" horiz-adv-x="532" 
d="M466 395q5 -27 4.5 -57t-11.5 -56h-267v-209v-71h-126v28v83v414v119q75 -32 126 -104v-147h274zM466 675q10 -54 0 -106h-245q-16 13 -33 28.5t-35 30t-36.5 27t-36.5 20.5h386z" />
    <glyph glyph-name="a" unicode="a" horiz-adv-x="633" 
d="M468 1l-48 178q-14 -7 -34.5 -13.5t-44.5 -6.5q-18 0 -32 3.5t-24 8.5q-11 5 -21 12l22 99q7 -3 15 -5q7 -2 16.5 -3t20.5 -1q10 0 26.5 3t26.5 13l-78 266l-154 -554h-140l182 604q10 19 27 35q14 13 35 24t50 11t50.5 -11t35.5 -24q16 -16 27 -35l183 -604h-141z" />
    <glyph glyph-name="b" unicode="b" horiz-adv-x="587" 
d="M482 340q21 -21 35 -51t14 -67q0 -44 -15 -84t-42 -71t-64 -49t-80 -18q-3 0 -14 0.5t-23.5 2.5t-22.5 6t-10 12v111q20 -5 35.5 -6t29.5 -1q21 0 38 7.5t29.5 20.5t19 29.5t6.5 33.5q0 15 -6.5 28.5t-16.5 24t-22 17t-23 6.5q41 6 75 27q14 9 24 19.5t13 17.5q3 -2 7 -5
q3 -2 6.5 -5.5t6.5 -5.5zM66 590q42 -5 74 -24t58 -45v-521h-132v590zM441 617q15 -15 31.5 -43.5t16.5 -60.5q0 -42 -14 -77.5t-37.5 -61.5t-55 -40.5t-66.5 -14.5q-23 0 -42.5 4t-20.5 10v104q0 -4 6.5 -6.5t15.5 -4t18.5 -1.5h15.5q15 1 30 6t27 14.5t19 23.5t7 33
q0 36 -30 60t-81 23q-18 0 -42 -7.5t-35 -21.5l1 -1q-21 21 -54 39t-65 23q45 31 87.5 46t99.5 15q45 0 88.5 -14.5t79.5 -46.5z" />
    <glyph glyph-name="c" unicode="c" horiz-adv-x="601" 
d="M180 336q0 -59 18.5 -111.5t51.5 -96.5t79 -77t100 -51q-24 -3 -47 -3q-73 0 -136 26t-109.5 72t-73 107.5t-26.5 133.5t25.5 134t70.5 108.5t106.5 73t134.5 26.5q11 0 29.5 -2.5t29.5 -2.5q-54 -16 -100.5 -47.5t-80.5 -76t-53 -98.5t-19 -115zM387 123q25 2 43.5 5
t32.5 7t25 10t23 14q6 -26 21 -55.5t37 -50.5q-22 -15 -50.5 -25.5t-57.5 -15.5q-24 13 -50 27.5t-50.5 30t-45 33t-34.5 35.5q17 -5 46.5 -11t59.5 -4zM461 660q33 -5 59.5 -15t48.5 -20q-22 -27 -37 -54.5t-21 -59.5q-27 16 -54 26.5t-73 14.5q-38 1 -62 -3t-41 -9
q14 18 34.5 35t45 32.5t50.5 28.5t50 24z" />
    <glyph glyph-name="d" unicode="d" horiz-adv-x="633" 
d="M70 641q38 -17 72.5 -41.5t60.5 -55.5v-541h-133v533v105zM210 677q94 0 164.5 -26t116.5 -71.5t69 -106.5t23 -131q0 -62 -18.5 -118t-56.5 -100t-95 -74t-133 -40v104q40 10 71 33.5t53 55t33.5 67.5t11.5 72q0 44 -14.5 85.5t-43 74t-72 53t-101.5 23.5q-27 26 -59 47
t-68 36q23 8 55 12t64 4z" />
    <glyph glyph-name="e" unicode="e" horiz-adv-x="535" 
d="M463 675q22 -54 0 -106h-247q-26 32 -65 60.5t-77 45.5h389zM463 393q22 -52 0 -106h-268v-49v-78v-27q-22 -38 -56 -62.5t-72 -35.5v104v21v36v84v14v93v27v120v112q38 -16 69.5 -41t58.5 -57v-134v-21h268zM463 -1h-382q38 16 75.5 44.5t59.5 60.5h247q22 -51 0 -105z
" />
    <glyph glyph-name="f" unicode="f" horiz-adv-x="532" 
d="M466 395q5 -27 4.5 -57t-11.5 -56h-267v-209v-71h-126v28v83v414v119q75 -32 126 -104v-147h274zM466 675q10 -54 0 -106h-245q-16 13 -33 28.5t-35 30t-36.5 27t-36.5 20.5h386z" />
    <glyph glyph-name="g" unicode="g" horiz-adv-x="636" 
d="M565 304q15 -26 22.5 -62t5 -72.5t-16 -70.5t-39.5 -57q-14 -13 -32.5 -18.5t-28.5 -6.5l-129 84q16 0 34 4t34 9q26 11 40.5 31t18 42.5t-4 44t-26.5 36.5t-44 26.5t-48 20t-41.5 14.5t-23.5 9v15h231q16 -11 27.5 -22t20.5 -27zM389 580q-46 0 -83 -17.5t-63.5 -47
t-41.5 -68t-17 -80.5v-29q0 -58 19 -111.5t53.5 -98t82 -77.5t104.5 -49h-49q-74 0 -139.5 26t-115 71.5t-78 107t-28.5 131.5q0 32 5.5 62.5t15.5 56.5q23 55 61 97t85 70t100.5 40.5t107.5 9.5q38 -2 63 -8t39.5 -13t20 -13t5.5 -8q-3 -20 -15 -40t-32 -40
q-21 17 -47.5 22.5t-52.5 5.5z" />
    <glyph glyph-name="h.001" horiz-adv-x="656" 
d="M67 676q22 -2 44.5 -7t40.5 -14t29.5 -23.5t11.5 -33.5v-601h-126v679zM461 430q-17 -13 -50.5 -26.5t-83.5 -13.5q-36 0 -61 5q-13 3 -23 6v-124q10 -6 24 -10q12 -4 30 -6.5t42 -2.5q13 0 29 1.5t32.5 4.5t32.5 7t28 9v-283h127v601q0 19 -11.5 33.5t-30 23.5t-41 14
t-44.5 7v-246z" />
    <glyph glyph-name="i.001" horiz-adv-x="269" 
d="M66 673q60 0 98.5 -18.5t38.5 -56.5v-598h-137v576v97z" />
    <glyph glyph-name="j" unicode="j" horiz-adv-x="402" 
d="M296 661q13 -9 22.5 -16.5t15.5 -17t8.5 -23t2.5 -34.5v-356q0 -57 -17 -97.5t-46.5 -66t-70.5 -37t-89 -11.5q-17 0 -32 3q-3 0 -16 2t-27 5.5t-25.5 7t-11.5 6.5q0 1 2.5 19.5t5 40.5t5 40.5l2.5 18.5q0 -3 7.5 -6.5t18 -6.5t23 -5.5t23.5 -2.5q56 -1 81 20t25 63v349
v119q22 0 46.5 -1.5t46.5 -12.5z" />
    <glyph glyph-name="k" unicode="k" horiz-adv-x="538" 
d="M360 314q59 -63 90.5 -116.5t46.5 -94.5q18 -48 20 -87h-109q0 -1 -4 19.5t-18.5 53t-43 72.5t-77.5 78q22 17 47.5 35t47.5 40zM517 621q-5 -21 -16 -49.5t-30.5 -63t-48 -74.5t-69.5 -84q-46 -43 -89 -69t-74 -42v-237h-123v556v118q21 0 42.5 -4.5t39.5 -13.5
t29.5 -23.5t11.5 -35.5v-214q76 47 121 94t68 87.5t29.5 69.5t6.5 40q30 -5 55.5 -20t46.5 -35z" />
    <glyph glyph-name="l" unicode="l" horiz-adv-x="438" 
d="M191 154q-42 -86 -125 -127v530v119q18 0 40 -5t40.5 -15t31.5 -24.5t13 -32.5v-445zM406 125v-126h-312q82 52 126 126h186z" />
    <glyph glyph-name="m" unicode="m" horiz-adv-x="802" 
d="M506 600q11 20 26 37q13 14 32.5 26t46.5 12q26 0 44 -12t30 -26q14 -17 23 -37l56 -597h-132l-21 547l-133 -498l-56 214zM94 600q8 20 22 37q12 14 30.5 26t45.5 12q26 0 45.5 -12t32.5 -26q15 -17 26 -37l63 -252l27 -89l15 -54l56 -202h-119l-146 547l-21 -547h-133z
" />
    <glyph glyph-name="n" unicode="n" horiz-adv-x="650" 
d="M459 675q21 0 43 -2.5t43 -11.5q17 -8 30 -27.5t13 -36.5v-598h-129v578v98zM288 604q-11 19 -28 35q-14 14 -35.5 25t-50.5 11q-28 0 -47.5 -11t-33.5 -25q-16 -16 -27 -35v-605h143l-35 557l257 -522v282z" />
    <glyph glyph-name="o" unicode="o" horiz-adv-x="697" 
d="M167 341q0 -60 17.5 -114.5t48.5 -98.5t74 -76t93 -48h-42q-69 0 -128.5 26t-103 71.5t-68.5 107t-25 132.5q0 72 25 133.5t68.5 107t103 71.5t128.5 26h42q-50 -16 -93 -49t-74 -78t-48.5 -99t-17.5 -112zM662 341q0 -58 -16.5 -109.5t-47 -94t-73.5 -73t-96 -46.5
q-48 21 -89.5 52.5t-73.5 74.5q17 -11 36.5 -12.5t41.5 -1.5q42 0 79.5 16t65 44.5t43.5 66.5t16 83q0 48 -16 88t-43.5 69t-65 45t-79.5 16q-22 0 -41.5 -4.5t-36.5 -9.5q32 42 77 70.5t93 49.5q50 -16 91.5 -46.5t71.5 -73t46.5 -94.5t16.5 -110z" />
    <glyph glyph-name="p.001" horiz-adv-x="575" 
d="M473 608q10 -11 22.5 -26t22.5 -33.5t17 -38.5t7 -41q0 -111 -56.5 -175.5t-159.5 -64.5h-13.5t-24.5 1.5t-23 4.5t-10 9v125q0 -3 6 -5.5t14 -4t17 -2.5t15 -1q48 0 80.5 26t32.5 70q0 32 -15.5 52.5t-37.5 32.5t-46.5 17t-43.5 5q-23 0 -37.5 -3.5t-23.5 -6.5
q-2 0 -2 2q-26 28 -58 44t-68 27q55 30 98 42t90 12q54 0 104.5 -16t92.5 -52zM67 594q42 -11 74 -27.5t60 -42.5v-524h-134v594z" />
    <glyph glyph-name="q" unicode="q" horiz-adv-x="672" 
d="M526 28q17 -8 37.5 -10t38.5 -1q21 1 42 4l-70 -103q-22 -4 -46 -4q-20 0 -45 3.5t-48 14.5q-30 16 -47.5 34.5t-28.5 34.5q-20 0 -44.5 0.5t-45.5 5.5q-46 11 -87 40t-73 65q-14 21 -25 41.5t-22 40.5q-11 37 -19.5 73.5t-8.5 72.5q0 70 23.5 131.5t64.5 107t96.5 72
t120.5 26.5q10 0 24 -2.5t25 -2.5q-27 -11 -55 -26.5t-50 -35.5q-42 -37 -70.5 -86.5t-39.5 -106.5q-8 -29 -9.5 -60.5t4 -63t17 -60.5t29.5 -53q34 -39 75 -52.5t80.5 -6.5t73.5 33.5t55 67.5q16 26 26 56.5t10 61.5q0 46 -14 86.5t-38.5 70.5t-59.5 47t-77 17
q-20 0 -40 -4.5t-36 -9.5q32 43 68.5 69t84.5 42q47 -15 86.5 -45.5t68 -71.5t44.5 -92.5t16 -108.5q0 -51 -11.5 -99t-38.5 -94q-20 -32 -42 -54.5t-54 -42.5q11 -10 16.5 -13.5t18.5 -8.5z" />
    <glyph glyph-name="r" unicode="r" horiz-adv-x="605" 
d="M67 587q36 -5 67 -24t57 -45v-515h-124v584zM463 609q21 -17 34.5 -50t13.5 -69q0 -39 -12 -76.5t-35 -67t-57.5 -47t-80.5 -17.5h-12.5t-20.5 1.5t-19.5 4t-8.5 7.5v111q0 -3 5 -5t11.5 -4t13.5 -3.5t11 -1.5q21 -2 39.5 4.5t33 19.5t22.5 30.5t8 36.5q0 35 -28.5 62
t-79.5 27q-20 0 -36 -6q-3 0 -12 -3t-18.5 -7.5t-17.5 -9t-8 -7.5l1 -1q-10 10 -24.5 21.5t-31 21.5t-34 17.5t-32.5 10.5q15 15 37 27.5t47.5 21.5t53.5 13.5t56 4.5q50 0 97.5 -15.5t83.5 -51.5zM555 32q2 -2 7 -8t12 -12q7 -7 17 -16h-121q-20 16 -36.5 32t-24.5 37
q-9 26 -11.5 47.5t-2.5 42.5t-6 44t-22 34q-5 5 -12 8.5t-15 11.5q64 0 117 42q21 -14 33 -33.5t18 -42t8 -46t2 -45.5q0 -16 2 -27.5t6.5 -22t11.5 -21.5t17 -25z" />
    <glyph glyph-name="s" unicode="s" horiz-adv-x="516" 
d="M396 343q38 -29 61.5 -67t23.5 -89q0 -47 -18 -79t-44.5 -52.5t-57.5 -32t-57.5 -16.5t-43.5 -6t-16 -1q19 21 37 48q14 23 28 57t19 76q0 29 -23 47.5t-56.5 34.5t-71 32t-66.5 40q-32 26 -56 64t-24 83q0 49 17 82.5t43 55t56.5 33t57 17t45.5 6t21 0.5q1 0 -12 -13
t-28.5 -36.5t-29 -57t-13.5 -73.5q0 -27 22 -45.5t54 -35t68 -33.5t64 -39zM285 558q-11 0 -25 -1t-31 -7q17 48 39 79t38 47q16 0 37 -2.5t43 -8.5t42.5 -15t37.5 -22q-16 -21 -26.5 -50.5t-21.5 -61.5q-27 16 -61 29t-72 13zM222 121h27t29 5q-16 -42 -38 -73.5t-39 -52.5
q-20 2 -32.5 3.5t-28.5 5.5q-21 5 -35.5 10t-25 10t-19 10t-18.5 10q15 26 29 53t19 60q26 -17 60 -29t72 -12z" />
    <glyph glyph-name="t" unicode="t" horiz-adv-x="580" 
d="M352 0h-125v518h125v-518zM550 612q0 -27 -5 -44.5t-16 -17.5h-480q-10 0 -15 17t-5 44q0 26 5 44.5t15 18.5h480q11 0 16 -18t5 -44z" />
    <glyph glyph-name="u" unicode="u" horiz-adv-x="638" 
d="M572 299q0 -78 -18 -135.5t-51.5 -95.5t-81 -56.5t-106.5 -18.5q-57 0 -103 18t-78.5 56t-49.5 96t-17 138v376q22 -3 46 -7.5t43 -13t31.5 -22.5t12.5 -36v-308q0 -88 33.5 -129t84.5 -41q54 0 87.5 40t33.5 130v308q0 22 12.5 36t31.5 22.5t42.5 13t46.5 7.5v-378z" />
    <glyph glyph-name="v" unicode="v" horiz-adv-x="593" 
d="M436 667q36 11 71.5 9.5t68.5 -14.5l-171 -589q-10 -21 -26 -37q-14 -14 -34 -25t-49 -11t-48.5 11t-33.5 25q-16 16 -26 37l-171 589q32 13 68 14.5t71 -9.5l140 -539l140 539v0z" />
    <glyph glyph-name="w" unicode="w" horiz-adv-x="813" 
d="M644 663q33 11 69 11q34 0 66 -9l-105 -592q-9 -20 -21 -36q-11 -14 -27 -25t-39 -11t-38.5 11t-26.5 25q-12 16 -21 36l-63 344l54 228l95 -485zM348 667q13 3 26 5t27 2q31 0 66 -11l-152 -590q-9 -20 -21 -36q-11 -14 -28 -25t-40 -11q-22 0 -37.5 11t-26.5 25
q-12 16 -21 36l-107 589q35 11 73 11q29 0 61 -8l58 -505z" />
    <glyph glyph-name="x" unicode="x" horiz-adv-x="603" 
d="M27 662q36 13 74 13q39 0 74 -15l398 -657h-148zM211 306l73 -125l-108 -179h-149zM318 483l106 176q37 16 76 16q18 0 36.5 -3.5t36.5 -9.5l-182 -304z" />
    <glyph glyph-name="y" unicode="y" horiz-adv-x="586" 
d="M374 276l-62 133l124 261q15 2 30 3t30 1q43 0 78 -7zM154 670l210 -453v-217h-140v261l-210 406q19 4 39 5.5t40 1.5q15 0 30 -1t31 -3z" />
    <glyph glyph-name="z" unicode="z" horiz-adv-x="590" 
d="M318 556h-291q2 18 5 39t10 39t18.5 30t29.5 12h299zM169 3h-128q-5 0 -9.5 5.5t-4.5 16.5l163 261l240 390h128q6 0 7 -8t1 -13l-206 -341zM552 81q10 -20 12 -40.5t2 -37.5h-356l72 120q87 0 136 1.5t75.5 -1t37.5 -12t21 -30.5z" />
    <glyph glyph-name="i" unicode="i" horiz-adv-x="269" 
d="M203 673v-97v-576h-137v598q0 38 38.5 56.5t98.5 18.5z" />
    <glyph glyph-name="h" unicode="h" horiz-adv-x="656" 
d="M67 676q22 -2 44.5 -7t40.5 -14t29.5 -23.5t11.5 -33.5v-601h-126v679zM463 407q-17 -13 -47 -19t-63 -6q-17 0 -36 3.5t-36 8.5q-19 5 -38 12v-139q19 -7 38 -12q17 -5 36 -8.5t36 -3.5q33 0 63 6t47 19l-2 -271h127v601q0 19 -11.5 33.5t-30 23.5t-41 14t-44.5 7z" />
    <glyph glyph-name="tilde" unicode="&#x2dc;" horiz-adv-x="833" 
 />
    <glyph glyph-name="p" unicode="p" horiz-adv-x="575" 
d="M279 676q55 0 103.5 -17.5t84.5 -47.5t57 -71t21 -88q0 -86 -41.5 -142.5t-138.5 -73.5q-11 -2 -25 -2.5t-29 1t-28.5 5t-23.5 9.5v121q21 -16 49.5 -17t55.5 10q32 14 49 37t17 52q0 23 -11.5 42.5t-32 33t-48 21t-59.5 7.5q-15 0 -27.5 -3t-23.5 -7q-28 27 -62.5 46.5
t-73.5 31.5q39 28 85.5 40t101.5 12zM67 594q42 -11 74 -27.5t60 -42.5v-524h-134v594z" />
    </font>
</defs>
</svg>
